<?xml version="1.0" standalone="no"?>
<!DOCTYPE svg PUBLIC "-//W3C//DTD SVG 1.1//EN" "http://www.w3.org/Graphics/SVG/1.1/DTD/svg11.dtd">
<svg xmlns="http://www.w3.org/2000/svg">
<metadata>Generated by Fontastic.me</metadata>
<defs>
<font id="cozy-real-estate" horiz-adv-x="512">
<font-face font-family="cozy-real-estate" units-per-em="512" ascent="480" descent="-32"/>
<missing-glyph horiz-adv-x="512" />

<glyph unicode="&#98;" d="M244 307c0 2-2 4-5 4l-27 0c-2 0-4-2-4-4l0-20 36-30 0 50z m-49-20l-21 19-1 0z m244 20c0 2-2 4-5 4l-27 0c-2 0-4-2-4-4l0-20 36-30z m60-110l-40 34 0 0-47 39 0 0-22 17-21 19 0 0-2 1c-7 6-20 6-27 0l-84-70-39 33 0 0-22 17-22 19 1 0-2 1c-7 6-20 6-27 0l-132-110c-2-2-3-6-1-8l12-13c1-2 2-2 4-2 1-1 3 0 4 1l126 105 75-62 23-19 23 19 74 62 127-105c1-1 2-1 4-1 0 0 0 0 0 0 2 0 3 0 4 2l11 13c2 2 2 6 0 8z m-146 67l-65-54-23-19-9-8-9 8-23 19-66 54-105-87c0 0 0-1 0-1l0-88c0-6 5-11 12-11l70 0 0 70 47 0 0-70 148 0 0 70 47 0 0-70 70 0c6 0 12 5 12 11l0 88c0 0 0 1 0 1z m37 23l-21 19 0 0z"/>
<glyph unicode="&#77;" d="M305 406l-192 0c-5 0-9-4-9-10l0-152c8 2 16 3 24 3l0 20 75 0 0-31-27 0c9-5 18-12 25-19l2 0 0-3c5-5 9-10 12-16l0 19 75 0 0-32-69 0c3-6 4-12 6-19l63 0 0-31-63 0c-3-23-14-43-30-58l118 0 0 319c0 6-5 10-10 10z m-102-120l-75 0 0 32 75 0z m0 51l-75 0 0 31 75 0z m87-101l-75 0 0 31 75 0z m0 50l-75 0 0 32 75 0z m0 51l-75 0 0 31 75 0z m154-32l-120 0 0-228 120 0c5 0 9 4 9 9l0 209c0 6-4 10-9 10z m-12-194l-87 0 0 31 87 0z m0 46l-87 0 0 31 87 0z m0 46l-87 0 0 31 87 0z m0 45l-87 0 0 32 87 0z m-303-17c-45 0-82-37-82-82 0-46 37-83 82-83 46 0 83 37 83 83 0 45-37 82-83 82z m29-118c0-1 0-2-1-2l-55 0c-1 0-2 1-2 2l0 8c0 1 1 2 2 2l6 0 0 22-6 0c-1 0-2 1-2 2l0 7c0 1 1 2 2 2l6 0 0 13c0 13 10 22 25 22 11 0 18-6 19-7 0 0 0-1 0-2l-6-7c0-1-1-1-1-1-1 0-1 0-2 0 0 0-5 4-10 4-7 0-11-4-11-9l0-13 17 0c1 0 2-1 2-2l0-7c0-1-1-2-2-2l-17 0 0-21 24 0 0 10c0 1 0 2 1 2l10 0c1 0 1-1 1-2z"/>
<glyph unicode="&#80;" d="M158 243l-107 44 0-75c22 20 51 33 83 33 8 0 16-1 24-2z m265 159l-1-176-122 69 2-62-120 66 1-64c22-10 40-25 53-45l8 0 0-15c8-16 12-33 12-52 0-36-16-69-41-91l253 0c8 0 16 7 16 16l0 354z m-90-324l-48 0 0 48 48 0z m0 64l-48 0 0 48 48 0z m88-64l-48 0 0 48 48 0z m0 64l-48 0 0 48 48 0z m-287 83c-56 0-102-46-102-102 0-56 46-102 102-102 56 0 102 45 102 102 0 56-46 102-102 102z m36-146c0-1-1-2-2-2l-68 0c-1 0-2 1-2 2l0 10c0 2 1 3 2 3l7 0 0 27-7 0c-1 0-2 1-2 2l0 9c0 1 1 2 2 2l7 0 0 16c0 16 13 28 31 28 14 0 23-9 24-9 0-1 0-2 0-3l-7-9c-1-1-1-1-2-1-1 0-1 0-2 1 0 0-6 4-13 4-8 0-13-4-13-12l0-15 21 0c2 0 3-1 3-2l0-9c0-1-1-2-3-2l-21 0 0-27 29 0 0 13c0 1 1 2 2 2l12 0c1 0 2-1 2-2l0-26z"/>
<glyph unicode="&#81;" d="M402 379c0 3-2 6-6 6l-41 0c-4 0-7-3-7-6l0-30 54-45z m91-166l-60 51 0 0-71 58 0 0-32 27-33 28 0 0-2 1c-12 10-30 10-42 0l-180-150c19 12 41 18 66 18 7 0 15 0 22-2l113 94 191-158c1-2 3-2 5-2 1 0 1 0 1 0 2 0 5 1 6 3l17 20c3 4 2 9-1 12z m-229-76l45 0 0-105 106 0c10 0 18 8 18 17l0 132c0 1 0 2-1 2l-158 131-91-76c43-16 75-54 81-101z m66 212l-33 28 0 0z m-201-182c-18 0-33-15-33-33 0-18 15-33 33-33 18 0 33 15 33 33 0 18-15 33-33 33z m10 59c-59 0-107-48-107-107 0-59 48-107 107-107 58 0 106 48 106 107 0 59-48 107-106 107z m51-162c-2 0-5 1-6 2l-26 26c-8-6-19-10-29-10-29 0-52 24-52 52 0 29 23 52 52 52 29 0 52-23 52-52 0-10-3-20-9-29l25-25c2-2 3-4 3-7 0-5-5-9-10-9z"/>
<glyph unicode="&#97;" d="M394 396c0 4-3 7-7 7l-43 0c-4 0-7-3-7-7l0-31 57-47 0 78z m32-121l0 0-74 62 0 0-34 28-35 29 0 0-2 2c-12 10-31 10-44 0l-207-173c-4-3-5-10-2-13l18-22c2-1 4-3 6-3 3 0 5 1 7 2l200 167 200-167c2-1 4-2 7-2 0 0 0 0 0 0 3 0 5 2 7 3l17 22c4 3 3 10-1 13z m-167 53l-166-137c0-1 0-1 0-2l0-139c0-10 8-18 18-18l111 0 0 111 74 0 0-111 111 0c11 0 19 8 19 18l0 139c0 1 0 1 0 2z m59 37l-35 29 0 0z"/>
<glyph unicode="&#98;" d="M244 307c0 2-2 4-5 4l-27 0c-2 0-4-2-4-4l0-20 36-30 0 50z m-49-20l-21 19-1 0z m244 20c0 2-2 4-5 4l-27 0c-2 0-4-2-4-4l0-20 36-30z m60-110l-40 34 0 0-47 39 0 0-22 17-21 19 0 0-2 1c-7 6-20 6-27 0l-84-70-39 33 0 0-22 17-22 19 1 0-2 1c-7 6-20 6-27 0l-132-110c-2-2-3-6-1-8l12-13c1-2 2-2 4-2 1-1 3 0 4 1l126 105 75-62 23-19 23 19 74 62 127-105c1-1 2-1 4-1 0 0 0 0 0 0 2 0 3 0 4 2l11 13c2 2 2 6 0 8z m-146 67l-65-54-23-19-9-8-9 8-23 19-66 54-105-87c0 0 0-1 0-1l0-88c0-6 5-11 12-11l70 0 0 70 47 0 0-70 148 0 0 70 47 0 0-70 70 0c6 0 12 5 12 11l0 88c0 0 0 1 0 1z m37 23l-21 19 0 0z"/>
<glyph unicode="&#99;" d="M296 462l-251 0c-7 0-12-5-12-12l0-406c0-7 5-12 12-12l263 0 0 418c0 7-5 12-12 12z m-133-354l-99 0 0 41 99 0z m0 66l-99 0 0 41 99 0z m0 66l-99 0 0 41 99 0z m0 66l-99 0 0 41 99 0z m0 66l-99 0 0 41 99 0z m114-264l-99 0 0 41 99 0z m0 66l-99 0 0 41 99 0z m0 66l-99 0 0 41 99 0z m0 66l-99 0 0 41 99 0z m0 66l-99 0 0 41 99 0z m201-42l-158 0 0-298 158 0c7 0 12 5 12 12l0 274c0 7-5 12-12 12z m-15-254l-115 0 0 41 115 0z m0 60l-115 0 0 41 115 0z m0 60l-115 0 0 42 115 0z m0 61l-115 0 0 41 115 0z"/>
<glyph unicode="&#100;" d="M430 403l-342 0c-7 0-12-6-12-13l0-46 366 0 0 46c0 7-5 13-12 13z m26-178l-401 0 0-181c0-7 6-12 14-12l258 0 0 135 85 0 0-135 35 0c7 0 13 5 13 12l0 181z m-175-136l-178 0 0 78 178 0z m161 246l-33 0 28-58 0 0 0-27-40 0 0 27-20 58-32 0 13-58 0 0 0-27-39 0 0 27-7 58-33 0 0-85-41 0 0 85-32 0-8-58 0-27-39 0 0 27 12 58-30 0-22-58 0-27-39 0 0 27 29 58-33 0-46-58 0-37 456 0 0 37z"/>
<glyph unicode="&#102;" d="M485 421l-64 0-1-185-128 73 2-66-126 70 1-71-139 58 0-259 0 8c0-10 8-17 17-17l421 0c9 0 17 7 17 17z m-116-222l50 0 0-51-50 0z m0-68l50 0 0-51-50 0z m-94 68l51 0 0-51-51 0z m0-68l51 0 0-51-51 0z m-93 68l51 0 0-51-51 0z m0-68l51 0 0-51-51 0z m-93 68l51 0 0-51-51 0z m0-68l51 0 0-51-51 0z"/>
<glyph unicode="&#103;" d="M486 239l-24 0c-6 0-10-4-10-10l-21-77-330 0-32 166c0 6-4 10-9 10l-24 0c-5 0-9-4-9-10l32-276c0-6 4-10 9-10l24 0c5 0 9 4 9 10l0 56 330 0 0-56c0-6 4-10 9-10l24 0c5 0 10 4 10 10l21 187c0 6-4 10-9 10z m-277-77l213 0c6 0 10 5 10 12l0 17c0 7-4 12-10 12l-213 0c-5 0-10-5-10-12l0-17c0-7 4-12 10-12z m-59 4c9-9 25-7 35 5 10 12 11 29 2 38l-48 47c-10 9-25 6-36-5-10-12-11-29-1-38z"/>
<glyph unicode="&#104;" d="M356 46l24 0 0-14-24 0z m-219 0l24 0 0-14-24 0z m344 194l-386 0 0 120c0 10 10 18 22 18 10 0 19-6 21-14l19 3c-5 16-21 28-40 28-23 0-41-16-41-36l0-119-37 0c-9 0-15-7-15-16l0-15c0-9 6-16 15-16l10 0c1-6 2-13 4-21l11-52c15-56 46-65 83-66 3 0 7 0 10 0l215 0c5 0 10 0 15 1 24 3 55 17 70 61l17 77 7 0c0 0 1 0 1 0 8 1 14 7 14 16l0 15c0 9-6 16-15 16z m-366 78c1-2 1-3 2-5l84 17c0 2 0 3 0 5-3 14-11 25-22 31l-55-11c-8-10-11-23-9-37z"/>
<glyph unicode="&#105;" d="M407 138c0 5-1 11-4 16 0 1 0 2-1 3l-25 62 0 1c-9 26-21 50-53 50l-121 0c-32 0-43-25-52-50l-27-62c-3-6-6-13-6-20l0-20c0-3 1-5 1-8 0-2-1-4-1-6l0-57c0-8 7-15 16-15l31 0c9 0 16 7 16 15l0 29 165 0 0-29c0-8 7-15 16-15l30 0c8 0 15 7 15 15l0 57c0 2-1 4-1 6 0 3 1 5 1 8l0 20z m-238 76c10 28 18 36 34 36l121 0c16 0 25-9 34-36l19-37c-6 2-13 3-20 3l-189 0c-6 0-12-1-18-2z m16-103l-34 0c-6 0-10 5-10 11 0 6 4 11 10 11l34 0c6 0 11-5 11-11 0-6-5-11-11-11z m118 2l-78 0c-4 0-7 3-7 7 0 4 3 7 7 7l78 0c4 0 7-3 7-7 0-4-3-7-7-7z m70-2l-33 0c-6 0-11 5-11 11 0 6 5 11 11 11l33 0c6 0 11-5 11-11 0-6-5-11-11-11z m107 245l-435 0c-11 0-21-10-21-22 0-12 10-22 21-22l2 0 0-261c0-10 8-17 17-17 9 0 16 6 17 14l1 0 0 264 361 0 0-264 1 0c1-8 8-14 17-14 10 0 18 7 18 17l0 261 1 0c12 0 21 10 21 22 0 12-9 22-21 22z"/>
<glyph unicode="&#106;" d="M191 408c-4 4-9 6-14 6-30 0-40-35-41-56 0-7 5-14 13-14 8-1 14 5 14 13 1 7 4 22 10 28 5-17 8-65 8-120 0-2-1-3-1-5 0-2 1-3 1-4 0-14 0-27 0-41 9-2 19 0 27 4 0 9 1 18 1 28l90 0c0-8-1-16-1-24 3-1 5-2 8-4 6-3 13-5 20-5 1 32 1 71-1 106 1 2 1 3 1 5 0 2 0 4-1 6-3 37-7 67-17 77-3 4-8 6-13 6-30 0-40-35-41-56-1-7 5-14 13-14 7-1 14 5 14 13 0 7 4 22 10 28 2-9 4-25 6-46l-90 0c-3 33-8 60-16 69z m107-96c0-12 1-25 1-38l-90 0c0 12 0 25-1 38z m-216-132c-8-7-19-10-29-10-11 0-20-13-20-28 0-15 9-27 20-27 17 0 34 6 49 18 14 11 25 11 38 0 30-24 69-24 98 0 14 11 25 11 38 0 31-24 71-24 101 2 14 12 23 12 38 0 15-13 33-20 51-20 11 0 20 12 20 27 0 15-9 28-20 28-11 0-22 4-31 12-27 23-52 23-79 0-18-16-42-16-60-2-26 21-52 21-77 0-18-14-41-14-59 0-26 21-52 21-78 0z m0-83c-8-7-19-11-29-11-11 0-20-12-20-27 0-16 9-28 20-28 17 0 34 6 49 18 14 11 25 11 38 0 30-23 69-23 98 0 14 11 25 11 38 0 31-24 71-23 101 2 14 12 23 12 38 0 15-13 33-20 51-20 11 0 20 12 20 28 0 15-9 27-20 27-11 0-22 4-31 12-27 23-52 23-79 0-18-15-42-16-60-1-26 20-52 20-77 0-18-14-41-14-59 0-26 20-52 20-78 0z"/>
<glyph unicode="&#107;" d="M38 354l0-322 79 0 0 322-39 51z m121 0l0-30-23 0 0-52 23 0 0-140-23 0 0-51 23 0 0-49 79 0 0 322-38 51z m126 0l0-30-25 0 0-52 25 0 0-140-25 0 0-51 25 0 0-49 79 0 0 322-39 51z m166 51l-40-51 0-30-33 0 0-52 33 0 0-140-33 0 0-51 33 0 0-49 79 0 0 322z"/>
<glyph unicode="&#108;" d="M361 358l-91-92-200 0 0 22-26 0 0-256 258 0 0 25-24 0 0 182 101 101 43-43 0 103-103 0z m86 103l-19 0 0-26 19 0 0-19 25 0 0 45z m-377-26l19 0 0 26-45 0 0-45 26 0z m47 26l32 0 0-26-32 0z m51 0l32 0 0-26-32 0z m51 0l32 0 0-26-32 0z m51 0l32 0 0-26-32 0z m51 0l32 0 0-26-32 0z m0-404l32 0 0-25-32 0z m52 404l32 0 0-26-32 0z m0-404l32 0 0-25-32 0z m-329 336l26 0 0-32-26 0z m403 0l25 0 0-32-25 0z m-403-52l26 0 0-32-26 0z m403 0l25 0 0-32-25 0z m0-53l25 0 0-32-25 0z m0-52l25 0 0-32-25 0z m0-52l25 0 0-32-25 0z m0-53l25 0 0-32-25 0z m0-74l-19 0 0-25 44 0 0 45-25 0z"/>
<glyph unicode="&#109;" d="M191 237c35 0 62 37 62 84 0 46-27 84-62 84-34 0-62-38-62-84 0-47 28-84 62-84z m185-82c-2 2-3 3-4 5-13 30-52 65-113 66l-3 0c-60 0-98-33-113-65-1-1-2-2-3-4-2-1-3-3-4-5-13-20-20-43-19-64 1-22 11-40 26-50 7-4 14-6 21-6 14 0 28 8 44 18 10 6 20 13 32 17 1 1 6 2 15 2 10 0 17-1 19-2 11-5 21-11 30-18 15-9 29-19 44-19 6 0 12 2 18 5 32 19 39 70 14 114-1 2-3 4-4 6z m-53 82c35 0 63 37 63 84 0 46-28 84-63 84-34 0-62-38-62-84 0-47 28-84 62-84z m102 43c-27 0-48-29-48-65 0-37 21-66 48-66 28 0 49 29 49 66 0 36-21 65-49 65z m-282-65c0 36-21 65-49 65-27 0-49-29-49-65 0-37 22-66 49-66 28 0 49 29 49 66z"/>
<glyph unicode="&#110;" d="M223 250c18 0 33 20 33 45 0 25-15 45-33 45-18 0-33-20-33-45 0-25 15-45 33-45z m99-44c0 1-1 2-2 2-7 17-27 36-61 36l-1 0c-33 0-53-18-61-35 0 0-1-1-2-2 0-1-1-2-2-3-7-11-10-23-10-34 1-12 6-22 14-27 4-2 7-3 11-3 8 0 16 4 24 9 5 4 11 7 17 10 1 0 4 0 8 0 6 0 10 0 10 0 7-3 12-7 17-10 8-5 15-10 23-10 4 0 7 1 10 3 17 10 21 37 7 60 0 2-1 3-2 4z m-28 44c19 0 34 20 34 45 0 25-15 45-34 45-18 0-33-20-33-45 0-25 15-45 33-45z m55 23c-15 0-26-15-26-35 0-20 11-35 26-35 15 0 26 15 26 35 0 20-11 35-26 35z m-152-35c0 20-11 35-26 35-15 0-26-15-26-35 0-20 11-35 26-35 15 0 26 15 26 35z m258 83c-7 15-15 29-24 42-39 53-101 87-171 87-116 0-211-94-211-210 0-117 95-211 211-211 116 0 211 94 211 211 0 28-6 56-16 81z m-195-249c-54 0-103 26-133 66l46 26c0 8 1 16 3 24-1 0-1 0-2 1-14 1-27 4-38 9l-33-18c-7 19-11 39-11 60 0 92 75 167 168 167 54 0 102-25 133-65l-53-30c1-8 2-16 3-24 12-2 23-6 32-12l42 23c7-18 11-38 11-59 0-93-75-168-168-168z"/>
<glyph unicode="&#111;" d="M427 391c0 0-116 5-171 60-5-4-9-8-14-11-20-14-43-23-66-29-34-9-65-19-98-19-1-1-1-1-1-1 0 0-7-62 9-137 17-78 61-171 159-222 1-1-1 1 0 0 8-4 126 59 168 222 10 40 15 85 14 137z m-178-317c-3 1-5 3-7 4l0 176-118 0c-13 62-8 114-8 114 0 0 0 0 0 0 27 1 51 9 78 16 16 4 33 11 48 20l0-150 138 0c-33-132-125-183-131-180z"/>
<glyph unicode="&#112;" d="M462 452l-52 0c-4 0-7-1-9-3l-181-159c-10 2-24 4-34 4-72 0-131-59-131-131 0-72 59-131 131-131 73 0 132 59 132 131 0 22-4 36-9 48l45 15c5 2 9 7 9 13l-2 50 51 3c6 1 12 6 12 13l2 60 39 8c6 2 10 7 10 13l0 53c0 7-6 13-13 13z m-315-289c16 0 29-9 36-23 2-5 3-10 3-16 0-22-17-40-39-40-22 0-39 18-39 40 0 22 17 39 39 39z"/>
<glyph unicode="&#113;" d="M264 449c-67 0-121-54-121-121l0-69c0-1-1-2-2-3-6-2-11-4-16-6-6-2-10-8-10-15l0-159c0-6 4-13 10-15 44-18 91-27 139-27 48 0 94 9 139 27 6 2 10 9 10 15l0 159c0 7-4 13-10 15-5 2-10 4-17 6-1 1-2 2-2 3l0 69c0 67-54 121-120 121z m-33-262c0 18 15 33 33 33 18 0 33-15 33-33 0-12-7-22-17-28l0-55c0-9-7-16-16-16-9 0-17 7-17 16l0 55c-9 6-16 16-16 28z m112 141l0-60c-26 6-53 9-79 9-27 0-53-3-79-9l0 60c0 44 35 80 79 80 43 0 79-36 79-80z"/>
<glyph unicode="&#114;" d="M223 212c0-6-1-20-4-42l24 5c-10 18-16 28-17 31-1 2-2 4-3 6z m256-82l-39 206c-3 15-17 24-31 21l-352-68c-14-2-23-16-20-30l39-206c3-15 17-24 31-21l352 68c14 2 23 16 20 30z m-299 0c-5-6-13-10-23-12-10-2-19-1-27 1l-3 18c6-2 12-3 16-3 5-1 9 0 12 0 4 1 7 3 9 5 2 2 3 4 2 7 0 2-1 4-2 5-1 1-3 2-5 3-2 1-7 2-13 4-6 1-11 3-14 5-3 2-6 4-8 7-2 3-4 6-4 10-2 8-1 15 4 21 4 5 12 9 21 11 5 1 9 1 14 1 4-1 9-1 14-2l-3-16c-6 1-10 1-13 1-3 1-7 0-10 0-3-1-6-2-7-4-2-2-3-5-2-7 0-2 1-3 2-5 1-1 3-2 4-3 2 0 7-2 14-3 9-3 15-6 19-9 4-4 7-8 8-14 1-8 0-15-5-21z m81 10l-11 20-32-7-3-22-20-4 14 96 23 5 49-84z m32 6l-18 90 19 3 15-74 36 7 3-15z m71 14l-18 89 52 10 3-15-32-7 3-19 31 6 3-16-31-6 5-23 32 6 4-15z m44 163l-311-60c-14-2-24-15-21-28l33-174c1-3 2-6 4-8-10 2-17 9-19 18l-34 174c-2 13 7 26 21 29l311 60c11 2 22-3 27-11-3 1-7 1-11 0z m-57 38l-110 75c0 1 0 1 0 2-4 17-20 28-36 24-17-3-28-19-24-35 0-2 0-4 1-5l-72-107 23 4 60 89c6-5 15-7 23-6 10 2 17 8 21 16l91-61z"/>
<glyph unicode="&#115;" d="M159 186c-3 1-7 1-13 0l-5-1 4-23 6 2c5 1 9 2 12 5 2 2 3 5 2 9-1 4-3 7-6 8z m320-56l-40 206c-3 14-17 23-31 20l-350-67c-14-3-23-17-21-31l40-205c3-15 16-24 30-21l351 68c14 2 23 16 21 30z m-296-8l-26 28-9-2 6-32-18-3-16 83 25 5c11 2 20 1 26-2 6-3 10-8 12-17 1-5 0-9-2-14-2-4-5-8-9-11 16-16 26-27 31-31z m30 6l-16 83 48 9 3-14-30-6 3-19 29 6 2-15-28-5 4-21 31 5 2-14z m117 22l-48 56-1 0c3-11 5-19 6-24l7-39-15-3-16 83 22 5 48-56 0 0c-2 11-4 19-5 23l-7 40 15 3 17-84z m76 15l-18-4-13 69-23-5-3 15 63 12 3-14-23-5z m1 158l-310-60c-14-3-23-16-21-29l34-173c0-3 1-6 3-8-9 2-17 9-19 18l-33 174c-3 13 7 25 21 28l310 60c11 2 21-3 27-11-4 1-8 1-12 1z m-56 37l-110 75c0 0 0 1-1 2-3 17-19 27-35 24-17-3-28-19-24-36 0-1 0-3 1-5l-72-106 23 4 60 89c6-5 15-7 23-6 10 2 17 8 21 16l91-61z"/>
<glyph unicode="&#116;" d="M226 201c-7-2-12-5-15-10-2-6-3-13-1-22 2-9 5-16 9-20 5-4 11-5 18-4 14 3 19 13 15 32-3 19-12 26-26 24z m149 27l-10-1 11-54 7 1c17 3 24 14 20 32-3 18-13 25-28 22z m105-99l-40 205c-3 14-16 23-30 20l-348-67c-15-3-24-16-21-30l39-205c3-14 17-23 31-20l348 67c14 3 23 16 21 30z m-382-58l-34 172c-2 13 7 26 21 28l308 60c11 2 22-2 27-11-4 1-7 1-11 1l-308-60c-15-2-24-15-21-28l33-172c0-3 2-6 3-8-9 2-16 9-18 18z m81 54c-4-5-11-9-21-10-9-2-17-2-24 0l-3 16c6-1 11-2 15-2 4 0 8 0 11 0 4 1 6 2 8 4 2 2 3 4 2 7 0 2-1 3-2 4-1 2-3 2-5 3-2 1-6 2-12 4-5 1-9 3-12 5-3 1-6 3-8 6-2 3-3 6-4 10-2 7 0 13 4 18 4 6 11 9 19 11 5 0 9 1 13 1 4-1 8-1 13-2l-3-15c-5 1-9 1-12 2-3 0-6 0-8-1-4-1-6-2-8-4-1-2-2-4-1-6 0-2 1-3 2-4 1-1 2-2 4-3 2-1 6-2 12-4 8-2 14-4 18-8 4-3 6-7 7-12 1-8 0-14-5-20z m87 22c-5-9-14-14-27-17-12-2-23 0-31 6-8 6-14 16-16 29-3 14-2 25 4 34 5 8 14 14 27 16 13 3 23 1 31-5 8-6 14-16 17-30 2-13 1-24-5-33z m30-5l-16 83 17 3 13-68 34 7 3-15z m120 35c-6-9-17-15-31-18l-24-4-16 83 26 5c14 2 25 1 34-5 8-6 14-15 17-28 2-13 0-25-6-33z m-63 181l-110 74c0 1 0 2 0 2-3 17-19 28-36 24-16-3-27-19-24-35 1-2 1-3 2-5l-72-106 23 4 60 88c6-5 14-7 23-5 9 2 17 8 21 15l90-60z"/>
<glyph unicode="&#117;" d="M391 230l-7-1 7-37 6 1c11 2 16 10 13 22-2 12-9 17-19 15z m-246-49c-2 1-5 1-9 0l-3-1 3-15 4 1c3 1 6 2 8 3 1 2 2 4 1 7 0 3-2 4-4 5z m337-51l-39 206c-3 14-17 24-31 21l-351-68c-15-3-24-16-21-30l40-207c2-14 16-23 30-20l352 68c14 2 23 16 20 30z m-385-59l-33 174c-3 13 6 26 21 29l311 60c10 2 21-3 26-11-3 1-7 1-11 0l-311-60c-14-2-24-15-21-28l33-174c1-3 2-6 4-8-10 2-17 9-19 18z m65 67l-18 19-6-2 4-21-12-3-11 57 16 3c8 2 14 1 18-1 5-2 7-6 8-11 1-4 1-7-1-10-1-3-3-5-6-7 11-11 18-19 21-22z m20 4l-11 56 33 6 2-9-21-4 3-13 19 4 2-10-20-4 3-14 21 4 2-10z m80 15l-33 38-1 0c2-8 4-13 4-16l5-27-10-2-11 57 15 3 33-38 0 0c-2 7-3 12-4 15l-5 27 11 2 11-56z m51 10l-12-3-9 47-15-3-2 10 42 8 2-10-15-3z m24 4l-11 57 33 6 2-10-21-4 2-12 19 4 2-10-19-4 3-14 21 4 2-10z m82 24c-4-6-12-10-22-12l-16-3-11 57 18 3c9 2 17 1 23-3 6-4 10-10 12-19 2-9 0-17-4-23z m-65 166l-110 75c0 1 0 1 0 2-3 17-20 28-36 24-17-3-28-19-24-35 0-2 1-4 1-6l-72-107 23 5 60 89c6-5 15-7 24-6 9 2 16 8 21 16l90-61z"/>
<glyph unicode="&#118;" d="M277 362c0 1-1 2-2 2l-18 0c-1 0-3-1-3-2l0-13 23-19z m13-49l0 0-30 25 0 0-13 11-14 12 0 0-1 0c-5 4-13 4-18 0l-84-69c-1-2-1-4 0-6l7-8c1-1 2-1 3-2 1 0 2 1 2 1l81 68 81-68c0 0 1-1 2-1 0 0 0 0 0 0 1 1 2 1 3 2l7 8c1 2 1 4 0 6z m-67 21l-67-55c0 0 0-1 0-1l0-56c0-4 3-7 7-7l45 0 0 44 30 0 0-44 45 0c4 0 7 3 7 7l0 56c0 0 0 1 0 1z m24 15l-14 12 0 0z m209-266l-96 95c21 29 34 64 34 102 0 94-77 171-171 171-94 0-170-77-170-171 0-94 76-170 170-170 33 0 64 9 90 25l99-97c10-10 28-9 41 4 12 12 13 31 3 41z m-359 198c0 71 57 128 127 128 71 0 128-57 128-128 0-70-57-127-128-127-70 0-127 57-127 127z"/>
<glyph unicode="&#119;" d="M236 322c0-20-17-36-37-36-20 0-36 16-36 36 0 21 16 37 36 37 20 0 37-16 37-37z m81 0c0-13-10-23-23-23-13 0-23 10-23 23 0 13 10 23 23 23 13 0 23-10 23-23z m-2-19c-2 0-9-8-21-8-12 0-19 8-21 8-8 0-12-4-16-9 16-5 22-24 23-41l40 0c10 0 16 6 16 16 0 13-3 34-21 34z m-72-13c-3 1-6 2-10 2-3 0-15-13-34-13-19 0-31 13-34 13-28 0-33-33-33-55 0-15 10-24 25-24l84 0c15 0 25 9 25 24 0 4 0 8-1 12-1 17-7 36-22 41z m218-207l-96 96c22 28 34 63 34 102 0 94-76 170-170 170-94 0-171-76-171-170 0-95 77-171 171-171 33 0 64 10 90 26l98-98c10-10 29-8 41 4 12 13 14 31 3 41z m-358 199c0 70 57 127 127 127 70 0 127-57 127-127 0-70-57-127-127-127-70 0-127 57-127 127z"/>
<glyph unicode="&#120;" d="M442 32l38 0 0 75-38 0 0-39-125 0 0 39-37 0 0-39-196 0 0 149 196 0 0-31 37 0 0 123-37 0 0-56-196 0 0 175 196 0 0-42 37 0 0 42 125 0 0-242 38 0 0 277-434 0 0-431z"/>
<glyph unicode="&#121;" d="M400 379c0 4-3 7-7 7l-41 0c-4 0-7-3-7-7l0-30 55-45 0 75z m90-166l-60 51 0 0-71 59 0-1-32 28-33 27 0 0-2 2c-12 9-30 9-42 0l-181-151c19 12 42 19 66 19 8 0 15-1 23-3l113 95 191-159c2-2 4-2 6-2 0 0 0 0 1 0 2 0 4 1 5 3l17 20c3 4 3 9-1 12z m-229-76l45 0 0-106 106 0c10 0 18 8 18 18l0 132c0 1 0 1 0 2l-159 131-92-76c44-16 76-54 82-101z m66 213l-33 27 0 0z m-192-124c-59 0-107-48-107-107 0-59 48-107 107-107 59 0 107 48 107 107 0 59-48 107-107 107z m8-159l0-13c0-2-1-3-2-3l-10 0c-1 0-3 1-3 3l0 13c-17 2-26 12-27 13 0 1 0 2 0 3l8 10c0 0 1 1 2 1 0 0 1 0 1-1 0 0 11-10 24-10 7 0 15 4 15 12 0 7-9 11-19 15-13 5-30 12-30 30 0 14 11 25 26 28l0 13c0 1 2 2 3 2l10 0c1 0 2-1 2-2l0-13c15-2 23-10 23-10 1-1 1-2 1-3l-6-10c-1-1-1-2-2-2-1 0-1 0-2 1 0 0-9 8-20 8-9 0-16-5-16-12 0-7 9-11 20-15 13-5 28-11 28-29 0-15-10-27-26-29z"/>
<glyph unicode="&#122;" d="M249 310c0 2-2 4-4 4l-28 0c-2 0-4-2-4-4l0-20 36-30 0 50z m-49-20l-22 19 0-1z m246 20c0 2-2 4-5 4l-27 0c-3 0-5-2-5-4l0-20 37-30 0 50z m60-111l-40 34 0 0-47 39 0 0-22 18-22 18 0 0-1 2c-8 6-20 6-28 0l-85-71-39 33 0 0-22 18-22 18 0 0-1 2c-8 6-20 6-28 0l-79-66c9 2 17 3 26 3 7 0 15-1 22-2l45 38 75-63 23-19 23 19 76 63 127-106c1-1 3-2 4-2 0 0 0 0 1 0 1 0 3 1 4 2l11 14c2 2 2 6-1 8z m-254-6l-23 19-66 54-31-25c36-15 62-50 62-92 0-13-2-26-7-38l0-33 149 0 0 70 47 0 0-70 71 0c7 0 12 5 12 11l0 89c0 0 0 1 0 1l-106 87-66-54-23-19-10-8z m145 97l-22 19 0-1z m-301-59c-46 0-82-37-82-82 0-45 36-82 82-82 45 0 82 37 82 82 0 45-37 82-82 82z m6-122l0-10c0-1-1-2-2-2l-7 0c-1 0-2 1-2 2l0 10c-14 2-21 10-21 10-1 1-1 2 0 2l6 8c0 1 0 1 1 1 0 0 1 0 1-1 0 0 8-7 18-7 6 0 12 3 12 9 0 5-7 8-14 11-11 4-23 9-23 24 0 10 8 19 20 21l0 10c0 1 1 2 2 2l7 0c1 0 2-1 2-2l0-10c12-1 18-7 18-8 0 0 1-1 0-2l-4-8c-1-1-1-1-2-1 0 0-1 0-1 0 0 0-7 7-16 7-7 0-12-4-12-9 0-6 7-9 15-12 11-4 22-9 22-22 0-12-8-21-20-23z"/>
<glyph unicode="&#65;" d="M307 404l-191 0c-5 0-9-4-9-9l0-152c7 2 16 3 24 4l0 19 75 0 0-31-27 0c9-5 17-11 25-19l2 0 0-2c4-5 8-11 12-17l0 19 74 0 0-31-68 0c2-6 4-13 5-19l63 0 0-31-62 0c-4-23-14-43-30-58l117 0 0 318c0 5-5 9-10 9z m-101-119l-75 0 0 31 75 0z m0 50l-75 0 0 32 75 0z m86-100l-74 0 0 31 74 0z m0 50l-74 0 0 31 74 0z m0 50l-74 0 0 32 74 0z m154-31l-120 0 0-227 120 0c5 0 9 4 9 9l0 208c0 5-4 10-9 10z m-12-193l-87 0 0 31 87 0z m0 45l-87 0 0 31 87 0z m0 46l-87 0 0 31 87 0z m0 46l-87 0 0 31 87 0z m-302-17c-45 0-82-37-82-83 0-45 37-82 82-82 46 0 83 37 83 82 0 46-37 83-83 83z m6-123l0-10c0-1 0-2-1-2l-8 0c-1 0-2 1-2 2l0 10c-13 2-20 10-21 10 0 1 0 2 0 3l6 7c0 1 1 1 1 1 1 0 1 0 2-1 0 0 8-7 18-7 5 0 11 3 11 9 0 6-6 8-14 11-10 4-23 9-23 24 0 10 8 19 20 21l0 10c0 1 1 2 2 2l8 0c1 0 1-1 1-2l0-10c12-1 18-7 18-8 1 0 1-1 1-2l-5-8c0 0-1-1-1-1-1 0-1 0-2 1 0 0-7 6-15 6-7 0-12-4-12-9 0-6 6-9 15-12 10-4 22-8 22-22 0-12-8-21-21-23z"/>
<glyph unicode="&#66;" d="M430 318c0 5-4 10-9 10l-273 0c-6 0-10-5-10-10l0-37 292 0z m-128-179l0-62-32 0c-6-17-17-33-30-45l99 0 0 107 68 0 0-107 27 0c6 0 11 4 11 10l0 144-184 0c8-14 14-30 16-47z m-50 59l213 0 0 29-35 47-26 0 22-47 0 0 0-21-31 0 0 21-17 47-25 0 10-47 1 0 0-21-32 0 0 21-6 47-25 0 0-68-33 0 0 68-26 0-6-47 0-11c6-5 12-11 16-18z m-38 76l-24 0-11-30c9-2 19-5 27-9z m-49 0l-27 0-28-36c13 5 26 8 41 8z m-10-48c-58 0-104-47-104-104 0-57 46-104 104-104 57 0 103 47 103 104 0 57-46 104-103 104z m7-155l0-12c0-1-1-2-2-2l-10 0c-1 0-2 1-2 2l0 12c-17 3-26 13-26 13-1 1-1 2 0 3l7 10c0 0 1 1 2 1 0 0 1 0 1-1 1 0 11-10 23-10 7 0 15 4 15 12 0 7-9 10-18 14-13 5-29 12-29 30 0 13 10 24 25 27l0 13c0 1 1 2 2 2l10 0c1 0 2-1 2-2l0-13c15-2 23-9 23-10 1 0 1-2 0-2l-6-11c0-1 0-1-1-1-1 0-2 0-2 0 0 1-9 8-20 8-9 0-15-4-15-11 0-7 9-11 19-15 13-5 28-11 28-28 0-14-10-26-26-29z"/>
<glyph unicode="&#67;" d="M418 134c14 0 26 10 29 24 15 2 25 14 25 29 0 7-1 12-5 17 2 4 3 8 3 12 0 13-8 24-20 28 3 5 4 9 4 15 0 16-13 30-30 30-6 0-11-2-16-5-5 9-14 15-25 15-15 0-26-10-29-23-2-1-4-1-5-1 8-7 13-17 13-28 0-6-1-11-3-15 4-6 6-13 6-21 0-18-13-33-30-36 0-1 0-2 0-3 0-13 8-24 19-28 5-5 10-8 17-9 2 0 3-1 5-1 2 0 3 1 5 1 3 1 7 2 10 3l0-35-125 0 0 53c6-5 13-8 22-8 17 0 32 13 36 30 0 0 1 0 1 0 17 3 30 18 30 36 0 8-2 15-6 21 2 4 3 10 3 15 0 11-5 21-13 28-3 3-7 5-11 7 3 5 5 11 5 18 0 20-17 37-37 37-8 0-15-3-20-6-7 11-19 18-32 18-18 0-32-12-36-28-16-3-29-16-31-32-2-9 1-18 5-25-7-6-11-14-12-24 0-1-1-2-1-3 0-1 1-1 1-1 33-16 56-50 56-89 3-1 7-2 10-2 6 0 12 2 18 5l0-50-39 0c-6-10-13-19-22-26l257 0c6 0 10 4 10 9l0 8c0 5-4 9-10 9l-50 0 0 37c5-3 11-6 18-6z m-290 98c-46 0-83-37-83-82 0-46 37-83 83-83 45 0 82 37 82 83 0 45-37 82-82 82z m3-122l0-10c0-1-1-2-2-2l-7 0c-1 0-2 1-2 2l0 10c-14 1-21 9-21 10-1 0-1 1 0 2l6 8c0 0 0 0 1 0 0 0 1 0 1 0 0 0 8-8 18-8 6 0 12 3 12 10 0 5-7 8-14 11-11 4-23 9-23 23 0 11 8 19 20 22l0 10c0 1 1 2 2 2l7 0c1 0 2-1 2-2l0-10c12-2 18-8 18-8 0-1 1-2 0-2l-4-8c-1-1-1-1-2-1 0 0-1 0-1 0 0 0-7 6-16 6-7 0-12-3-12-9 0-6 7-8 15-11 11-4 22-9 22-23 0-11-8-20-20-22z"/>
<glyph unicode="&#68;" d="M160 244l-107 44 0-75c22 21 51 33 83 33 8 0 16-1 24-2z m265 160l-1-177-122 70 2-63-120 67 1-65c22-10 40-25 53-44l8 0 0-16c8-16 12-33 12-52 0-37-16-69-41-91l253 0c9 0 16 7 16 16l0 355z m-90-325l-48 0 0 48 48 0z m0 64l-48 0 0 49 48 0z m89-64l-48 0 0 48 48 0z m0 64l-48 0 0 49 48 0z m-288 83c-57 0-103-46-103-102 0-57 46-103 103-103 56 0 102 46 102 103 0 56-46 102-102 102z m7-152l0-12c0-2-1-3-2-3l-9 0c-2 0-3 1-3 3l0 12c-16 2-25 12-25 13-1 0-1 2-1 2l8 10c0 0 1 1 1 1 1 0 2 0 2-1 0 0 10-9 22-9 7 0 15 3 15 11 0 7-8 10-18 14-13 5-28 12-28 29 0 13 10 24 24 27l0 13c0 1 1 2 3 2l9 0c1 0 2-1 2-2l0-13c15-1 22-9 23-10 0 0 1-1 0-2l-6-11c0 0-1-1-1-1-1 0-2 0-2 1 0 0-9 7-19 7-9 0-16-4-16-10 0-8 9-11 19-15 13-5 28-11 28-28 0-14-11-26-26-28z"/>
<glyph unicode="&#69;" d="M402 379c0 4-3 7-7 7l-41 0c-4 0-7-3-7-7l0-29 55-46z m90-165l-60 50 0 0-71 59 0 0-32 27-33 27 0 0-2 2c-11 9-30 9-42 0l-180-151c19 12 41 19 65 19 8 0 16-1 23-2l113 94 191-159c1-2 3-2 6-2 0 0 0 0 0 0 3 0 5 1 6 3l17 20c3 4 3 10-1 13z m-228-76l44 0 0-106 106 0c10 0 18 8 18 18l0 132c0 0 0 1 0 1l-159 131-91-75c43-16 75-55 82-101z m65 212l-33 27 0 0z m-192-124c-58 0-106-48-106-107 0-59 48-106 106-106 59 0 107 47 107 106 0 59-48 107-107 107z m36-153c-1 0-7-2-16-2-23 0-42 14-48 35l-7 0c-1 0-2 1-2 3l0 8c0 1 1 2 2 2l5 0c0 3 0 5 0 8l-5 0c-1 0-2 1-2 2l0 9c0 1 1 2 2 2l7 0c7 21 26 34 48 34 7 0 14-1 14-1 1 0 1-1 1-1 1-1 1-2 1-2l-3-12c-1-1-2-2-3-1 0 0-5 1-11 1-12 0-22-7-27-18l34 0c1 0 2 0 2-1 0 0 1-1 1-2l-2-8c0-1-1-2-3-2l-35 0c-1-2-1-5 0-8l33 0c1 0 2 0 2-1 1 0 1-1 1-2l-2-8c0-1-1-2-2-2l-29 0c5-11 15-18 28-18 6 0 12 1 12 1 0 1 1 1 1 0 1 0 1-1 2-1l2-12c0-1 0-2-1-3z"/>
<glyph unicode="&#70;" d="M247 310c0 2-2 4-4 4l-28 0c-2 0-4-2-4-4l0-20 36-31 0 51z m-48-20l-23 18 0 0z m246 20c0 2-2 4-5 4l-27 0c-3 0-5-2-5-4l0-20 37-31 0 51z m60-111l-40 33 0 0-47 40 0 0-22 18-22 18 0 0-2 1c-7 7-20 7-28 0l-84-70-40 33 0 0-21 18-23 18 0 0-1 1c-8 7-20 7-28 0l-79-65c8 2 17 3 26 3 7 0 15-1 22-2l45 38 76-63 23-20 23 20 75 63 128-107c1-1 3-1 4-1 0 0 1 0 1 0 1 0 3 1 4 2l11 13c2 3 2 7-1 9z m-255-7l-23 20-66 54-31-26c36-14 62-50 62-92 0-13-2-26-7-38l0-33 150 0 0 71 47 0 0-71 71 0c6 0 12 5 12 12l0 88c0 1 0 1 0 1l-107 88-66-54-23-20-9-7z m146 98l-22 18 0 0z m-302-59c-46 0-83-37-83-83 0-45 37-82 83-82 45 0 82 37 82 82 0 46-37 83-82 83z m27-118c0 0-6-2-12-2-18 0-32 11-37 27l-6 0c-1 0-1 1-1 2l0 7c0 1 0 1 1 1l4 0c0 2 0 4 0 6l-4 0c-1 0-1 1-1 2l0 7c0 1 0 2 1 2l6 0c5 16 20 26 37 26 6 0 10-1 11-1 0 0 1-1 1-1 0 0 0-1 0-1l-2-9c-1-1-2-2-3-2 0 0-4 1-8 1-9 0-17-5-21-13l27 0c0 0 1-1 1-1 0 0 1-1 0-2l-1-6c0-1-1-2-2-2l-28 0c0-1 0-3 0-6l27 0c0 0 1 0 1 0 0-1 0-1 0-2l-1-6c0-1-1-2-2-2l-22 0c4-8 12-14 22-14 5 0 9 1 9 1 0 1 1 0 1 0 1 0 1-1 1-1l2-9c0-1 0-2-1-2z"/>
<glyph unicode="&#71;" d="M306 407l-193 0c-5 0-10-5-10-10l0-153c8 3 16 4 25 4l0 20 75 0 0-32-27 0c9-5 18-11 25-19l2 0 0-2c5-5 9-11 12-17l0 19 76 0 0-31-70 0c3-6 5-13 6-20l64 0 0-31-64 0c-3-23-14-43-30-58l118 0 0 320c0 5-4 10-9 10z m-103-120l-75 0 0 31 75 0z m0 51l-75 0 0 31 75 0z m88-102l-76 0 0 32 76 0z m0 51l-76 0 0 31 76 0z m0 51l-76 0 0 31 76 0z m154-33l-121 0 0-228 121 0c5 0 9 4 9 9l0 210c0 5-4 9-9 9z m-12-194l-88 0 0 31 88 0z m0 46l-88 0 0 31 88 0z m0 46l-88 0 0 31 88 0z m0 46l-88 0 0 31 88 0z m-304-17c-46 0-83-37-83-83 0-46 37-83 83-83 46 0 83 37 83 83 0 46-37 83-83 83z m28-119c-1 0-6-2-13-2-18 0-32 11-37 28l-5 0c-1 0-2 1-2 2l0 6c0 1 1 2 2 2l4 0c0 2 0 4 0 6l-4 0c-1 0-2 1-2 2l0 6c0 1 1 2 2 2l5 0c5 16 20 27 37 27 6 0 11-2 11-2 1 0 1 0 1 0 1-1 1-1 1-2l-3-9c0-1-1-1-2-1 0 0-4 1-8 1-10 0-18-5-21-14l26 0c1 0 1 0 2-1 0 0 0-1 0-1l-1-7c0 0-1-1-2-1l-28 0c0-2 0-4 0-6l26 0c1 0 1 0 2-1 0 0 0-1 0-1l-1-7c-1-1-1-1-2-1l-22 0c3-9 12-15 21-15 5 0 9 2 9 2 1 0 1 0 2 0 0-1 1-1 1-2l2-9c0-1-1-2-1-2z"/>
<glyph unicode="&#72;" d="M430 317c0 5-4 10-10 10l-272 0c-5 0-10-5-10-10l0-37 292 0 0 37z m-128-178l0-62-32 0c-6-17-17-33-30-45l99 0 0 107 67 0 0-107 28 0c6 0 11 4 11 10l0 143-184 0c8-14 14-29 16-46l25 0z m-49 59l211 0 0 29-34 46-27 0 23-46 0-21-32 0 0 21-16 46-25 0 10-46 0 0 0-21-31 0 0 21-6 46-26 0 0-67-32 0 0 67-26 0-6-46 0-12c6-5 12-11 17-17z m-38 75l-24 0-12-30c10-2 19-5 27-9z m-50 0l-27 0-28-36c13 5 27 8 41 8z m-10-48c-57 0-104-46-104-103 0-57 47-104 104-104 57 0 103 47 103 104 0 57-46 103-103 103z m34-148c0 0-7-2-15-2-23 0-40 13-46 34l-7 0c-2 0-3 1-3 3l0 8c0 1 1 2 3 2l4 0c0 2 0 5 1 7l-5 0c-2 0-3 1-3 3l0 8c0 1 1 2 3 2l7 0c6 20 24 33 46 33 7 0 13-1 14-1 0 0 1-1 1-1 0-1 0-1 0-2l-3-11c0-2-1-2-3-2 0 0-5 1-10 1-12 0-22-6-26-17l33 0c1 0 1 0 2-1 0 0 0-1 0-2l-1-8c-1-1-2-2-3-2l-35 0c0-2 0-4 0-7l33 0c1 0 2 0 2-1 0-1 1-1 0-2l-1-8c-1-1-1-2-3-2l-27 0c4-11 15-18 27-18 6 0 11 2 11 2 1 0 1 0 2 0 1-1 1-1 1-2l3-11c0-1-1-2-2-3z"/>
<glyph unicode="&#73;" d="M414 134c14 0 26 10 29 24 14 2 25 14 25 29 0 6-2 12-5 16 2 4 3 8 3 12 0 13-8 24-20 28 3 5 4 9 4 15 0 16-13 29-30 29-6 0-11-1-16-4-5 8-14 14-25 14-14 0-26-9-29-22-2-1-3-1-5-2 8-6 13-16 13-27 0-6-1-11-3-15 4-6 6-13 6-21 0-18-13-33-30-36 0-1 0-1 0-2 0-13 8-24 20-28 4-5 10-8 16-9 2-1 4-1 5-1 2 0 4 0 5 1 3 0 7 1 10 3l0-35-124 0 0 52c6-4 13-7 21-7 18 0 33 13 36 29 1 0 1 0 2 0 17 4 30 18 30 36 0 8-3 15-7 21 2 5 3 10 3 15 0 11-5 21-12 28-4 3-7 5-12 6 3 6 5 12 5 18 0 21-16 37-37 37-7 0-14-2-19-6-7 11-19 19-32 19-18 0-32-13-36-29-16-2-29-15-31-32-1-8 1-17 6-24-7-6-12-14-13-24 0-1 0-2 0-3 0 0 0-1 0-1 33-16 56-49 56-88 4-1 7-2 10-2 6 0 12 2 18 5l0-50-39 0c-5-10-13-19-21-26l255 0c5 0 10 4 10 9l0 8c0 5-5 9-10 9l-50 0 0 37c5-4 11-6 18-6z m-288 97c-45 0-82-36-82-82 0-45 37-81 82-81 45 0 81 36 81 81 0 46-36 82-81 82z m24-117c0 0-6-2-12-2-18 0-32 11-37 27l-5 0c-1 0-2 1-2 2l0 7c0 1 1 1 2 1l3 0c0 2 0 4 1 6l-4 0c-1 0-2 1-2 2l0 7c0 1 1 1 2 1l5 0c5 16 20 27 37 27 5 0 10-2 11-2 0 0 0 0 1 0 0-1 0-1 0-2l-3-9c0-1-1-1-2-1 0 0-4 1-8 1-9 0-17-5-21-14l27 0c0 0 1 0 1 0 0-1 0-1 0-2l-1-6c0-1-1-2-2-2l-27 0c0-1 0-3 0-6l26 0c0 0 1 0 1 0 0-1 0-1 0-2l-1-6c0-1-1-2-2-2l-22 0c4-8 12-14 22-14 5 0 9 2 9 2 0 0 1 0 1-1 1 0 1 0 1-1l2-9c0-1 0-2-1-2z"/>
<glyph unicode="&#74;" d="M158 242l-106 44 0-74c22 20 51 32 83 32 8 0 15 0 23-2z m264 159l-1-176-121 70 2-63-119 67 1-65c21-9 39-25 52-44l8 0 0-15c8-16 12-34 12-52 0-36-16-69-41-91l252 0c9 0 16 7 16 16l0 353z m-89-323l-48 0 0 48 48 0z m0 64l-48 0 0 48 48 0z m88-64l-48 0 0 48 48 0z m0 64l-48 0 0 48 48 0z m-286 82c-57 0-102-45-102-101 0-57 45-102 102-102 56 0 101 45 101 102 0 56-45 101-101 101z m33-145c0 0-7-3-15-3-22 0-40 14-45 34l-7 0c-1 0-2 1-2 3l0 7c0 2 1 3 2 3l4 0c0 2 0 5 1 7l-5 0c-1 0-2 1-2 2l0 8c0 2 1 3 2 3l7 0c6 19 24 32 45 32 7 0 13-1 14-1 0 0 1-1 1-1 0-1 0-1 0-2l-3-11c0-1-1-2-2-2-1 0-5 1-10 1-12 0-22-6-27-16l33 0c1 0 1-1 2-1 0-1 1-1 0-2l-1-8c0-1-1-2-3-2l-34 0c0-2 0-5 0-7l32 0c1 0 2-1 2-1 1-1 1-1 1-2l-2-8c0-1-1-2-2-2l-27 0c4-11 14-18 26-18 6 0 11 2 11 2 1 0 2 0 2 0 1 0 1-1 1-1l3-12c0-1-1-2-2-2z"/>
<glyph unicode="&#75;" d="M402 380c0 4-3 7-7 7l-41 0c-3 0-6-3-6-7l0-29 54-46 0 75z m91-166l-61 51 0 0-70 59 0 0-33 27-33 27 0 0-2 2c-12 10-30 10-42 0l-181-151c19 12 42 19 66 19 8 0 15-1 23-3l113 95 191-160c2-1 4-2 6-2 1 0 1 0 1 0 2 1 4 2 6 3l17 21c3 4 2 9-1 12z m-230-76l45 0 0-106 107 0c9 0 17 8 17 18l0 132c0 1 0 1 0 2l-159 131-92-76c44-16 76-54 82-101z m66 213l-33 27 0 0z m-192-124c-59 0-107-48-107-107 0-60 48-108 107-108 59 0 107 48 107 108 0 59-48 107-107 107z m37-154c0-1-1-2-2-2l-71 0c-1 0-2 1-2 2l0 11c0 2 1 3 2 3l8 0 0 28-7 0c-2 0-3 1-3 2l0 10c0 1 1 2 3 2l7 0 0 17c0 17 13 29 32 29 15 0 24-9 25-9 1-1 1-3 0-4l-8-9c0 0-1-1-1-1-1 0-2 0-2 1 0 0-6 5-14 5-8 0-14-5-14-13l0-16 23 0c1 0 2-1 2-2l0-10c0-1-1-2-2-2l-23 0 0-28 31 0 0 13c0 2 1 3 2 3l12 0c1 0 2-1 2-3z"/>
<glyph unicode="&#76;" d="M248 310c0 3-2 5-5 5l-27 0c-3 0-5-2-5-5l0-19 37-31z m-49-19l-22 18 0 0z m247 19c0 3-2 5-5 5l-27 0c-3 0-5-2-5-5l0-19 37-31z m61-111l-41 34 0 0-47 40 0-1-22 19-22 18 0 0-1 1c-8 7-21 7-29 0l-85-70-39 33 0-1-22 19-22 18 0 0-2 1c-7 7-20 7-28 0l-79-66c8 2 17 4 26 4 7 0 15-1 22-3l45 38 76-63 23-19 24 19 75 63 129-107c1-1 2-1 4-1 0 0 0 0 0 0 2 0 3 1 4 2l12 14c2 2 1 6-1 8z m-256-6l-23 19-67 55-31-26c37-15 63-50 63-92 0-14-3-27-8-38l0-34 151 0 0 71 47 0 0-71 71 0c7 0 12 5 12 12l0 89c0 0 0 0 0 1l-107 88-66-55-23-19-10-8z m146 98l-22 18 0 0z m-303-59c-46 0-83-38-83-83 0-46 37-83 83-83 45 0 83 37 83 83 0 45-38 83-83 83z m29-119c0-1-1-2-2-2l-55 0c-1 0-2 1-2 2l0 8c0 1 1 2 2 2l6 0 0 22-6 0c-1 0-1 1-1 2l0 8c0 1 0 1 1 1l6 0 0 13c0 13 10 23 25 23 11 0 19-7 19-8 1 0 1-1 0-2l-6-7c0-1 0-1-1-1 0 0-1 0-1 0 0 0-5 4-11 4-6 0-11-4-11-9l0-13 18 0c1 0 1 0 1-1l0-8c0-1 0-2-1-2l-18 0 0-21 24 0 0 10c0 1 1 2 2 2l9 0c1 0 2-1 2-2z"/>
<glyph unicode="&#77;" d="M305 406l-192 0c-5 0-9-4-9-10l0-152c8 2 16 3 24 3l0 20 75 0 0-31-27 0c9-5 18-12 25-19l2 0 0-3c5-5 9-10 12-16l0 19 75 0 0-32-69 0c3-6 4-12 6-19l63 0 0-31-63 0c-3-23-14-43-30-58l118 0 0 319c0 6-5 10-10 10z m-102-120l-75 0 0 32 75 0z m0 51l-75 0 0 31 75 0z m87-101l-75 0 0 31 75 0z m0 50l-75 0 0 32 75 0z m0 51l-75 0 0 31 75 0z m154-32l-120 0 0-228 120 0c5 0 9 4 9 9l0 209c0 6-4 10-9 10z m-12-194l-87 0 0 31 87 0z m0 46l-87 0 0 31 87 0z m0 46l-87 0 0 31 87 0z m0 45l-87 0 0 32 87 0z m-303-17c-45 0-82-37-82-82 0-46 37-83 82-83 46 0 83 37 83 83 0 45-37 82-83 82z m29-118c0-1 0-2-1-2l-55 0c-1 0-2 1-2 2l0 8c0 1 1 2 2 2l6 0 0 22-6 0c-1 0-2 1-2 2l0 7c0 1 1 2 2 2l6 0 0 13c0 13 10 22 25 22 11 0 18-6 19-7 0 0 0-1 0-2l-6-7c0-1-1-1-1-1-1 0-1 0-2 0 0 0-5 4-10 4-7 0-11-4-11-9l0-13 17 0c1 0 2-1 2-2l0-7c0-1-1-2-2-2l-17 0 0-21 24 0 0 10c0 1 0 2 1 2l10 0c1 0 1-1 1-2z"/>
<glyph unicode="&#78;" d="M429 318c0 5-4 10-9 10l-272 0c-6 0-10-5-10-10l0-37 291 0z m-128-178l0-62-31 0c-7-17-17-33-31-45l99 0 0 107 68 0 0-107 27 0c6 0 11 4 11 9l0 144-184 0c9-14 14-29 17-46z m-49 59l212 0 0 29-35 46-26 0 23-46 0-21-32 0 0 21-16 46-26 0 11-46 0 0 0-21-32 0 0 21-5 46-26 0 0-67-33 0 0 67-26 0-6-46 0-12c6-5 12-11 17-17z m-88 75l-26 0-28-36c12 5 26 8 40 8z m50 0l-24 0-11-30c9-2 18-5 27-9z m-60-48c-57 0-103-46-103-103 0-58 46-104 103-104 58 0 104 46 104 104 0 57-46 103-104 103z m37-148c0-1-1-2-3-2l-68 0c-1 0-2 1-2 2l0 11c0 1 1 2 2 2l7 0 0 27-7 0c-1 0-2 1-2 3l0 9c0 1 1 2 2 2l7 0 0 16c0 16 13 28 31 28 15 0 24-8 24-9 1 0 1-2 0-3l-7-9c0 0-1-1-2-1 0 0-1 0-1 1 0 0-6 5-14 5-8 0-13-5-13-12l0-16 22 0c1 0 2-1 2-2l0-9c0-2-1-3-2-3l-22 0 0-27 29 0 0 13c0 1 1 2 3 2l11 0c2 0 3-1 3-2z"/>
<glyph unicode="&#79;" d="M419 134c14 0 26 10 29 24 14 2 25 14 25 29 0 6-2 12-5 17 2 3 3 8 3 12 0 13-8 24-20 28 3 4 4 9 4 14 0 17-13 30-30 30-6 0-11-2-16-5-5 9-14 15-25 15-15 0-26-10-29-23-2 0-3 0-5-1 8-7 13-17 13-28 0-5-1-10-3-15 4-6 6-13 6-20 0-18-13-33-30-37 0 0 0-1 0-2 0-13 8-24 19-28 5-5 10-8 17-9 2 0 3-1 5-1 2 0 3 1 5 1 3 1 7 2 10 3l0-34-125 0 0 52c6-5 14-8 22-8 18 0 32 13 36 29 0 0 1 1 1 1 17 3 30 18 30 36 0 7-2 15-6 20 2 5 3 10 3 16 0 11-5 21-13 27-3 3-7 6-11 7 3 5 5 11 5 18 0 20-17 37-37 37-8 0-14-2-20-6-6 11-18 18-32 18-17 0-32-12-36-28-16-3-29-15-31-32-1-9 1-17 6-24-7-6-12-15-12-24-1-1-1-2-1-4 0 0 0 0 0-1 34-15 57-49 57-88 3-1 6-2 9-2 7 0 13 2 18 5l0-49-39 0c-5-11-12-20-21-27l256 0c5 0 10 4 10 9l0 8c0 5-5 10-10 10l-50 0 0 36c5-3 11-6 18-6z m-289 98c-46 0-82-37-82-82 0-46 36-82 82-82 45 0 82 36 82 82 0 45-37 82-82 82z m26-118c0-1-1-2-2-2l-54 0c-1 0-2 1-2 2l0 9c0 1 1 2 2 2l5 0 0 21-5 0c-1 0-2 1-2 2l0 7c0 1 1 2 2 2l5 0 0 13c0 13 11 22 25 22 11 0 19-7 19-7 1-1 1-2 0-2l-6-8c0 0-1 0-1 0 0 0-1 0-1 0 0 0-5 4-11 4-6 0-11-4-11-10l0-12 18 0c1 0 1-1 1-2l0-7c0-1 0-2-1-2l-18 0 0-21 24 0 0 10c0 1 1 2 2 2l9 0c1 0 2-1 2-2z"/>
<glyph unicode="&#80;" d="M158 243l-107 44 0-75c22 20 51 33 83 33 8 0 16-1 24-2z m265 159l-1-176-122 69 2-62-120 66 1-64c22-10 40-25 53-45l8 0 0-15c8-16 12-33 12-52 0-36-16-69-41-91l253 0c8 0 16 7 16 16l0 354z m-90-324l-48 0 0 48 48 0z m0 64l-48 0 0 48 48 0z m88-64l-48 0 0 48 48 0z m0 64l-48 0 0 48 48 0z m-287 83c-56 0-102-46-102-102 0-56 46-102 102-102 56 0 102 45 102 102 0 56-46 102-102 102z m36-146c0-1-1-2-2-2l-68 0c-1 0-2 1-2 2l0 10c0 2 1 3 2 3l7 0 0 27-7 0c-1 0-2 1-2 2l0 9c0 1 1 2 2 2l7 0 0 16c0 16 13 28 31 28 14 0 23-9 24-9 0-1 0-2 0-3l-7-9c-1-1-1-1-2-1-1 0-1 0-2 1 0 0-6 4-13 4-8 0-13-4-13-12l0-15 21 0c2 0 3-1 3-2l0-9c0-1-1-2-3-2l-21 0 0-27 29 0 0 13c0 1 1 2 2 2l12 0c1 0 2-1 2-2l0-26z"/>
<glyph unicode="&#81;" d="M402 379c0 3-2 6-6 6l-41 0c-4 0-7-3-7-6l0-30 54-45z m91-166l-60 51 0 0-71 58 0 0-32 27-33 28 0 0-2 1c-12 10-30 10-42 0l-180-150c19 12 41 18 66 18 7 0 15 0 22-2l113 94 191-158c1-2 3-2 5-2 1 0 1 0 1 0 2 0 5 1 6 3l17 20c3 4 2 9-1 12z m-229-76l45 0 0-105 106 0c10 0 18 8 18 17l0 132c0 1 0 2-1 2l-158 131-91-76c43-16 75-54 81-101z m66 212l-33 28 0 0z m-201-182c-18 0-33-15-33-33 0-18 15-33 33-33 18 0 33 15 33 33 0 18-15 33-33 33z m10 59c-59 0-107-48-107-107 0-59 48-107 107-107 58 0 106 48 106 107 0 59-48 107-106 107z m51-162c-2 0-5 1-6 2l-26 26c-8-6-19-10-29-10-29 0-52 24-52 52 0 29 23 52 52 52 29 0 52-23 52-52 0-10-3-20-9-29l25-25c2-2 3-4 3-7 0-5-5-9-10-9z"/>
<glyph unicode="&#82;" d="M246 311c0 2-2 4-5 4l-27 0c-3 0-5-2-5-4l0-20 37-31 0 51z m-49-20l-22 18 0 0z m246 20c0 2-2 4-4 4l-28 0c-2 0-4-2-4-4l0-20 36-31 0 51z m61-112l-40 34 0 0-48 40 0 0-22 18-22 18 0 0-1 1c-8 7-20 7-28 0l-85-70-39 33 0 0-22 18-22 18 0 0-2 1c-7 7-20 7-28 0l-79-66c8 3 17 4 26 4 7 0 15-1 22-3l45 38 76-63 23-19 23 19 76 63 128-106c1-1 3-2 4-2 0 0 0 0 1 0 1 1 3 1 3 2l12 14c2 3 2 6-1 8z m-255-6l-24 19-66 55-31-26c37-14 63-50 63-92 0-13-3-26-8-38l0-34 150 0 0 71 48 0 0-71 71 0c6 0 12 6 12 12l0 89c0 0 0 1-1 1l-106 88-66-55-23-19-10-8z m145 98l-22 18 0 0z m-302-59c-46 0-83-37-83-83 0-46 37-83 83-83 45 0 82 37 82 83 0 46-37 83-82 83z m40-126c-2 0-4 1-5 2l-20 20c-7-5-15-7-23-7-22 0-40 18-40 40 0 22 18 40 40 40 22 0 40-18 40-40 0-8-2-16-7-23l20-19c1-2 2-4 2-6 0-4-3-7-7-7z m-22 55c0-14-12-26-26-26-14 0-25 12-25 26 0 14 11 25 25 25 14 0 26-11 26-25z"/>
<glyph unicode="&#83;" d="M311 406l-192 0c-5 0-10-4-10-9l0-153c8 2 16 3 25 4l0 19 75 0 0-31-27 0c9-5 17-12 25-19l2 0 0-2c4-6 9-11 12-17l0 19 75 0 0-32-69 0c2-6 4-12 5-19l64 0 0-31-63 0c-3-23-14-43-30-58l117 0 0 320c0 5-4 9-9 9z m-102-120l-75 0 0 32 75 0z m0 51l-75 0 0 31 75 0z m87-101l-75 0 0 31 75 0z m0 50l-75 0 0 32 75 0z m0 51l-75 0 0 31 75 0z m154-32l-120 0 0-228 120 0c5 0 9 4 9 9l0 210c0 5-4 9-9 9z m-12-194l-87 0 0 31 87 0z m0 46l-87 0 0 31 87 0z m0 46l-87 0 0 31 87 0z m0 46l-87 0 0 31 87 0z m-285-89c0-14-11-25-25-25-14 0-26 11-26 25 0 15 12 26 26 26 14 0 25-11 25-26z m-18 71c-46 0-83-37-83-82 0-46 37-83 83-83 46 0 83 37 83 83 0 45-37 82-83 82z m40-125c-2 0-4 1-5 2l-19 19c-7-4-15-7-23-7-22 0-40 18-40 40 0 23 18 41 40 41 22 0 40-18 40-41 0-8-3-16-7-22l19-20c2-1 3-3 3-5 0-4-4-7-8-7z"/>
<glyph unicode="&#84;" d="M430 317c0 6-4 10-10 10l-272 0c-5 0-10-4-10-10l0-36 292 0 0 36z m-128-178l0-62-32 0c-7-17-17-33-30-45l99 0 0 107 67 0 0-107 28 0c6 0 11 4 11 10l0 144-184 0c8-14 14-30 16-47l25 0z m-50 59l213 0 0 29-35 46-27 0 23-46 0-21-32 0 0 21-16 46-25 0 10-46 0 0 0-21-31 0 0 21-6 46-26 0 0-67-32 0 0 67-26 0-6-46 0-12c6-5 11-11 16-17z m-38 75l-24 0-11-30c9-1 19-5 27-8z m-49 0l-27 0-28-36c13 5 26 8 41 9z m12-136c0-18-14-32-32-32-17 0-32 14-32 32 0 17 15 32 32 32 18 0 32-15 32-32z m-22 89c-58 0-104-47-104-104 0-57 46-104 104-104 57 0 103 47 103 104 0 57-46 104-103 104z m50-158c-3 0-5 1-7 3l-24 24c-8-6-18-9-29-9-27 0-50 23-50 51 0 28 23 50 50 50 28 0 51-22 51-50 0-10-3-20-9-29l24-24c2-2 3-4 3-7 0-5-4-9-9-9z"/>
<glyph unicode="&#85;" d="M419 134c14 0 26 10 29 24 14 2 25 14 25 29 0 6-2 12-5 17 2 3 3 8 3 12 0 13-8 23-20 28 3 4 4 9 4 14 0 17-13 30-30 30-6 0-11-2-16-5-5 9-14 15-25 15-15 0-26-10-29-23-2 0-3-1-5-1 8-7 13-17 13-28 0-5-1-10-3-15 4-6 6-13 6-20 0-18-13-33-30-37 0 0 0-1 0-2 0-13 8-24 19-28 5-5 10-8 17-9 2 0 3-1 5-1 2 0 3 1 5 1 3 1 7 1 10 3l0-34-125 0 0 52c6-5 14-8 22-8 18 0 32 13 36 29 0 0 1 1 1 1 17 3 30 18 30 36 0 7-2 14-6 20 2 5 3 10 3 15 0 12-5 21-13 28-3 3-7 5-11 7 3 5 5 11 5 18 0 20-17 37-37 37-7 0-14-2-20-6-6 11-18 18-32 18-17 0-32-12-36-28-16-3-29-15-31-32-1-9 1-17 6-24-7-6-11-15-12-24 0-1-1-3-1-4 0 0 0 0 0-1 34-15 57-49 57-88 3-1 6-2 9-2 7 0 13 2 18 5l0-49-39 0c-5-11-12-20-21-27l256 0c5 0 10 4 10 9l0 8c0 5-5 10-10 10l-50 0 0 36c5-4 11-6 18-6z m-274 18c0-14-11-25-25-25-14 0-26 11-26 25 0 14 12 25 26 25 14 0 25-11 25-25z m-15 80c-45 0-82-37-82-82 0-46 37-82 82-82 45 0 82 36 82 82 0 45-37 82-82 82z m37-134c-2 0-4 1-5 2l-20 19c-6-4-14-7-22-7-22 0-40 18-40 40 0 22 18 40 40 40 22 0 39-18 39-40 0-8-2-16-7-22l20-20c1-1 2-3 2-5 0-4-3-7-7-7z"/>
<glyph unicode="&#86;" d="M160 243l-107 45 0-75c22 20 51 33 83 33 8 0 16-1 24-3z m265 160l-1-176-122 69 2-62-120 66 1-65c22-9 40-24 53-44l8 0 0-15c8-16 12-34 12-52 0-37-16-69-41-91l253 0c9 0 16 7 16 16l0 354z m-90-324l-48 0 0 48 48 0z m0 64l-48 0 0 48 48 0z m88-64l-48 0 0 48 48 0z m0 64l-48 0 0 48 48 0z m-264-5c0-17-14-31-32-31-17 0-31 14-31 31 0 18 14 32 31 32 18 0 32-14 32-32z m-23 88c-56 0-102-46-102-102 0-57 46-102 102-102 57 0 102 45 102 102 0 56-45 102-102 102z m50-155c-3 0-5 1-7 2l-24 24c-8-5-18-8-28-8-27 0-49 22-49 49 0 28 22 50 49 50 28 0 50-22 50-50 0-10-3-20-9-28l24-24c2-2 3-4 3-6 0-5-4-9-9-9z"/>
<glyph unicode="&#87;" d="M399 379c0 4-3 7-6 7l-41 0c-4 0-7-3-7-7l0-29 54-45z m91-165l-60 50 0 0-71 59 0 0-32 27-33 27 0 0-2 2c-12 10-30 10-42 0l-181-151c20 12 42 19 66 19 8 0 15-1 23-2l113 94 191-159c1-1 3-2 5-2 1 0 1 0 1 0 2 0 5 1 6 3l17 20c3 4 3 10-1 13z m-229-76l45 0 0-106 106 0c10 0 18 8 18 18l0 132c0 0 0 1-1 1l-158 131-92-75c43-16 75-55 82-101z m66 212l-33 27 0 0z m-215-208c0 8-3 12-8 12-5 0-8-4-8-13 0-8 3-13 8-13 5 0 8 5 8 14z m23 84c-59 0-107-48-107-107 0-59 48-106 107-106 59 0 107 47 107 106 0 59-48 107-107 107z m-54-85c0 7 2 13 7 18 4 4 10 6 17 6 6 0 12-2 16-6 4-4 6-10 6-17 0-8-2-14-7-18-4-5-10-7-17-7-7 0-12 2-16 6-4 4-6 10-6 18z m35-71l-19 0 55 95 20 0z m65 6c-4-5-10-7-17-7-6 0-12 2-16 6-4 4-6 10-6 18 0 7 2 13 7 18 4 4 10 6 17 6 7 0 12-2 16-6 4-4 6-9 6-17 0-8-2-14-7-18z m-16 30c-5 0-8-4-8-13 0-8 3-13 8-13 5 0 8 5 8 14 0 8-3 12-8 12z"/>
<glyph unicode="&#88;" d="M247 312c0 2-2 4-5 4l-27 0c-3 0-5-2-5-4l0-20 37-31 0 51z m-49-20l-23 18 0 0z m248 20c0 2-2 4-5 4l-27 0c-3 0-5-2-5-4l0-20 37-31 0 51z m61-112l-41 34 0 0-48 39 0 0-21 19-23 18 0 0-1 1c-8 7-21 7-28 0l-86-71-40 33 0 0-21 19-23 18 0 0-1 1c-8 7-21 7-28 0l-80-66c8 2 17 4 26 4 7 0 15-1 22-3l46 38 76-63 23-20 24 20 76 63 129-107c1-1 2-2 4-2 0 0 0 0 0 0 2 1 3 1 4 3l12 13c2 3 1 7-1 9z m-257-7l-24 20-66 55-32-26c37-15 63-51 63-93 0-14-2-26-7-38l0-34 151 0 0 71 48 0 0-71 71 0c7 0 12 5 12 12l0 89c0 0 0 1 0 1l-107 89-67-55-23-20-10-7z m147 99l-23 18 0 0z m-282-153c-4 0-6-4-6-10 0-7 2-10 6-10 4 0 6 3 6 10 0 6-2 10-6 10z m-41 27c0 7-2 10-6 10-5 0-7-3-7-10 0-7 2-10 6-10 4 0 7 4 7 10z m18 66c-46 0-84-37-84-83 0-46 38-83 84-83 46 0 83 37 83 83 0 46-37 83-83 83z m-42-66c0 6 1 10 5 14 3 3 8 5 13 5 5 0 9-2 13-5 3-3 4-7 4-13 0-6-1-11-5-14-3-4-8-6-13-6-5 0-10 2-13 5-3 3-4 7-4 14z m27-56l-15 0 43 74 15 0z m51 5c-4-3-8-5-13-5-6 0-10 1-13 4-3 3-5 8-5 14 0 6 2 11 5 14 4 4 8 6 14 6 5 0 9-2 12-5 4-3 5-8 5-14 0-6-2-10-5-14z"/>
<glyph unicode="&#89;" d="M311 407l-193 0c-5 0-9-4-9-10l0-153c8 3 16 4 24 4l0 20 76 0 0-32-28 0c10-5 18-11 26-19l2 0 0-2c4-5 8-11 12-17l0 19 75 0 0-31-69 0c2-6 4-13 5-20l64 0 0-31-63 0c-3-23-14-43-30-58l118 0 0 320c0 6-5 10-10 10z m-102-120l-76 0 0 31 76 0z m0 51l-76 0 0 31 76 0z m87-102l-75 0 0 32 75 0z m0 51l-75 0 0 31 75 0z m0 51l-75 0 0 31 75 0z m155-33l-121 0 0-228 121 0c5 0 9 4 9 9l0 210c0 5-4 9-9 9z m-12-194l-88 0 0 31 88 0z m0 46l-88 0 0 31 88 0z m0 46l-88 0 0 31 88 0z m0 46l-88 0 0 31 88 0z m-322-83c0 7-2 10-6 10-4 0-6-4-6-10 0-7 2-10 6-10 4 0 6 3 6 10z m18 66c-46 0-83-37-83-83 0-46 37-83 83-83 46 0 83 37 83 83 0 46-37 83-83 83z m-42-67c0 6 2 11 5 14 3 4 8 6 13 6 5 0 10-2 13-5 3-3 5-8 5-13 0-6-2-11-6-15-3-3-8-5-13-5-5 0-9 2-13 5-3 3-4 7-4 13z m27-55l-15 0 43 74 15 0z m51 5c-4-3-8-5-13-5-6 0-10 1-13 4-3 3-5 8-5 14 0 6 2 11 6 14 3 4 7 5 13 5 5 0 9-1 12-4 3-4 5-8 5-14 0-6-2-10-5-14z m-13 24c-4 0-6-4-6-10 0-7 2-10 6-10 4 0 6 3 6 10 0 6-2 10-6 10z"/>
<glyph unicode="&#90;" d="M427 317c0 5-5 10-10 10l-272 0c-5 0-9-5-9-10l0-37 291 0 0 37z m-128-178l0-62-32 0c-6-17-17-33-30-45l99 0 0 107 67 0 0-107 28 0c6 0 10 4 10 10l0 143-183 0c8-14 14-29 16-46z m-87 134l-24 0-12-30c10-2 19-5 27-9z m38-75l211 0 0 29-34 46-27 0 23-46 0-21-32 0 0 21-16 46-25 0 10-46 0 0 0-21-31 0 0 21-6 46-26 0 0-67-32 0 0 67-26 0-6-46 0-12c6-5 12-11 17-17z m-88 75l-26 0-28-36c12 5 26 8 40 8z m-32-130c0 8-3 12-8 12-5 0-8-4-8-12 0-8 3-12 8-12 5 0 8 4 8 12z m51-34c-5 0-7-4-7-13 0-8 2-12 7-12 5 0 8 4 8 13 0 8-3 12-8 12z m-29 116c-57 0-103-46-103-103 0-57 46-104 103-104 57 0 103 47 103 104 0 57-46 103-103 103z m-52-83c0 8 2 14 6 18 4 4 10 6 17 6 6 0 11-2 15-6 4-3 6-9 6-16 0-8-2-13-6-18-5-4-10-7-17-7-6 0-12 2-16 6-3 4-5 10-5 17z m34-68l-18 0 53 92 18 0z m63 6c-4-5-10-7-17-7-6 0-11 2-15 6-4 3-6 9-6 17 0 7 2 13 6 17 5 5 10 7 17 7 6 0 12-2 16-6 4-4 5-9 5-17 1-7-2-13-6-17z"/>
<glyph unicode="&#48;" d="M418 135c14 0 26 10 29 23 14 2 25 15 25 30 0 6-2 12-5 16 2 4 3 8 3 13 0 13-8 23-20 28 3 4 4 9 4 14 0 17-13 30-30 30-6 0-11-2-16-5-5 9-15 15-26 15-14 0-26-10-29-23-1 0-3 0-4-1 7-7 12-17 12-28 0-5-1-10-3-15 4-6 7-13 7-21 0-18-14-33-31-36 0-1 0-2 0-2 0-13 8-24 20-29 4-4 10-8 16-9 2 0 4 0 6 0 1 0 3 0 4 0 4 1 7 2 10 3l0-34-125 0 0 52c6-5 14-7 22-7 18 0 33 12 36 29 1 0 1 0 1 0 18 4 31 18 31 37 0 7-3 14-7 20 2 5 4 10 4 15 0 12-5 22-13 28-4 3-7 6-12 7 3 5 5 12 5 18 0 21-16 37-37 37-7 0-14-2-20-6-6 11-18 19-32 19-17 0-32-12-36-29-16-2-29-15-31-32-1-9 1-17 5-24-6-6-11-15-12-24 0-1 0-3 0-4 0 0 0 0 0-1 33-16 57-49 57-89 3-1 6-1 9-1 7 0 13 2 18 5l0-50-39 0c-5-11-13-20-21-27l257 0c5 0 10 4 10 10l0 7c0 5-5 10-10 10l-50 0 0 37c5-4 11-6 18-6z m-312 32c0 7-2 10-6 10-4 0-6-3-6-10 0-7 2-10 6-10 4 0 6 3 6 10z m41-27c-4 0-6-4-6-10 0-7 2-10 6-10 4 0 6 3 6 10 0 7-2 10-6 10z m-20 92c-46 0-82-36-82-82 0-46 36-82 82-82 46 0 82 36 82 82 0 46-36 82-82 82z m-45-66c0 6 2 11 5 14 4 4 8 6 14 6 5 0 9-2 12-5 3-3 5-8 5-13 0-6-2-11-5-14-4-4-8-6-14-6-5 0-9 2-12 5-3 3-5 7-5 13z m28-54l-15 0 42 73 15 0z m50 4c-4-3-8-5-13-5-6 0-10 2-13 5-3 3-4 7-4 13 0 6 1 11 5 14 3 4 8 6 13 6 5 0 9-2 12-5 3-3 5-8 5-13 0-6-2-11-5-15z"/>
<glyph unicode="&#49;" d="M421 403l-1-176-122 69 2-62-120 67 1-66c21-9 40-24 53-44l8 0 0-15c8-16 12-34 12-53 0-36-16-69-41-91l254 0c9 0 16 7 16 16l0 356z m-90-325l-48 0 0 48 48 0z m0 65l-48 0 0 48 48 0z m89-65l-48 0 0 48 48 0z m0 65l-48 0 0 48 48 0z m-265 101l-107 44 0-75c22 20 51 33 84 33 8 0 16-1 23-2z m-46-99c0 8-2 12-7 12-5 0-8-4-8-13 0-8 3-12 8-12 5 0 7 4 7 13z m52-34c-5 0-8-5-8-13 0-8 2-12 7-12 5 0 8 4 8 13 0 8-2 12-7 12z m-29 115c-57 0-103-46-103-103 0-56 46-102 103-102 56 0 102 46 102 102 0 57-46 103-102 103z m-52-82c0 7 2 13 6 17 4 4 10 7 16 7 7 0 12-2 16-6 4-4 6-10 6-17 0-7-2-13-7-17-4-5-9-7-16-7-7 0-12 2-16 6-3 3-5 9-5 17z m34-68l-19 0 53 91 19 0z m62 6c-4-5-10-7-16-7-7 0-12 2-16 6-4 3-6 9-6 17 0 7 3 13 7 17 4 4 10 6 16 6 7 0 12-1 16-5 4-4 6-10 6-17 0-7-3-13-7-17z"/>
<glyph unicode="&#97;" d="M394 396c0 4-3 7-7 7l-43 0c-4 0-7-3-7-7l0-31 57-47 0 78z m32-121l0 0-74 62 0 0-34 28-35 29 0 0-2 2c-12 10-31 10-44 0l-207-173c-4-3-5-10-2-13l18-22c2-1 4-3 6-3 3 0 5 1 7 2l200 167 200-167c2-1 4-2 7-2 0 0 0 0 0 0 3 0 5 2 7 3l17 22c4 3 3 10-1 13z m-167 53l-166-137c0-1 0-1 0-2l0-139c0-10 8-18 18-18l111 0 0 111 74 0 0-111 111 0c11 0 19 8 19 18l0 139c0 1 0 1 0 2z m59 37l-35 29 0 0z"/>
<glyph unicode="&#101;" d="M429 146c17 0 31 12 35 28 17 3 30 18 30 35 0 8-2 15-6 20 2 5 3 10 3 15 0 15-10 28-24 33 3 6 5 11 5 18 0 20-16 36-36 36-7 0-13-3-19-6-6 11-18 18-31 18-17 0-31-12-35-28-1 0-3-1-5-1 9-8 15-20 15-34 0-6-1-12-4-18 5-7 8-15 8-24 0-22-16-40-36-44 0-1 0-2 0-3 0-15 9-28 23-33 5-6 12-10 20-11 2-1 4-1 7-1 1 0 3 0 5 1 4 0 8 2 12 4l0-42-150 0 0 63c8-6 17-9 26-9 22 0 40 15 44 35 0 0 1 0 1 0 21 4 36 22 36 44 0 9-2 17-7 24 2 6 4 12 4 18 0 14-6 26-16 34-4 3-8 6-13 8 3 6 5 14 5 21 0 25-19 45-44 45-9 0-17-3-24-7-8 13-22 22-38 22-21 0-39-15-43-34-19-3-35-19-38-39-1-10 2-20 7-29-8-7-13-17-14-29-1-1-1-2-1-4 0-16 8-29 21-37-2-5-3-10-3-16 0-18 11-34 27-41 0 0 1 0 2-1 8-8 20-14 33-14 7 0 15 2 21 6l0-60-133 0 0 29c5-3 10-5 16-5 13 0 24 9 27 21 0 0 0 0 1 0 10 2 18 10 21 21-16 6-27 22-27 40 0 6 1 11 3 16-12 8-21 21-21 37 0 2 1 3 1 4-5 0-10-1-13-4-5 8-14 14-24 14-13 0-23-9-26-21-12-2-21-11-23-23-1-7 1-13 4-18-5-5-9-12-9-20 0-10 5-18 12-23-1-3-1-6-1-10 0-12 7-21 17-25 5-6 13-9 20-9 5 0 10 1 14 3l0-27-50 0c-7 0-12-5-12-12l0-9c0-6 5-11 12-11l426 0c7 0 12 5 12 11l0 9c0 7-5 12-12 12l-60 0 0 44c6-4 14-7 22-7z"/>
</font>
</defs>
</svg>
